Najbezbolnije spajanje 2 video fajla različitog framerate-a i i audio codeca

a c a

3.5" Floppy
Učlanjen(a)
04.11.2003
Poruke
5,888
Poena
83
Imam 2 fajla snimana sa 2 različita telefona koja treba da spojim:
General
Unique ID : 6788511075185784851757068195748101584 (0x51B6B6FDEB730A55B05B0019ABBBDD0)
Complete name : G:\\01.mkv
Format : Matroska
Format version : Version 4
File size : 2.29 GiB
Duration : 7 min 16 s
Overall bit rate mode : Variable
Overall bit rate : 45.1 Mb/s
Writing application : Lavf57.71.100
Writing library : Lavf57.71.100
ErrorDetectionType : Per level 1

Video
ID : 1
Format : AVC
Format/Info : Advanced Video Codec
Format profile : [email protected]
Format settings : CABAC / 1 Ref Frames
Format settings, CABAC : Yes
Format settings, Reference fra : 1 frame
Format settings, GOP : M=1, N=31
Codec ID : V_MPEG4/ISO/AVC
Duration : 7 min 16 s
Width : 3 840 pixels
Height : 2 160 pixels
Display aspect ratio : 16:9
Frame rate mode : Constant
Frame rate : 30.104 FPS
Color space : YUV
Chroma subsampling : 4:2:0
Bit depth : 8 bits
Scan type : Progressive
Default : Yes
Forced : No

Audio
ID : 2
Format : FLAC
Format/Info : Free Lossless Audio Codec
Codec ID : A_FLAC
Duration : 7 min 16 s
Bit rate mode : Variable
Channel(s) : 2 channels
Channel layout : L R
Sampling rate : 96.0 kHz
Bit depth : 24 bits
Compression mode : Lossless
Default : Yes
Forced : No
------------------------------------------
General
Unique ID : 255937902924707111512164294814701707909 (0xC08BD8DC813C8FD14ADE315E471BE285)
Complete name : G:\\02.mkv
Format : Matroska
Format version : Version 4
File size : 2.14 GiB
Duration : 6 min 20 s
Overall bit rate : 48.3 Mb/s
Encoded date : UTC 2021-04-23 16:40:00
Writing application : mkvmerge v56.1.0 ('My Friend') 64-bit
Writing library : libebml v1.4.2 + libmatroska v1.6.4

Video
ID : 1
Format : AVC
Format/Info : Advanced Video Codec
Format profile : [email protected]
Format settings : CABAC / 1 Ref Frames
Format settings, CABAC : Yes
Format settings, Reference fra : 1 frame
Format settings, GOP : M=1, N=30
Codec ID : V_MPEG4/ISO/AVC
Duration : 6 min 20 s
Bit rate : 48.0 Mb/s
Width : 3 840 pixels
Height : 2 160 pixels
Display aspect ratio : 16:9
Frame rate mode : Constant
Frame rate : 30.000 FPS
Color space : YUV
Chroma subsampling : 4:2:0
Bit depth : 8 bits
Scan type : Progressive
Bits/(Pixel*Frame) : 0.193
Stream size : 2.13 GiB (99%)
Default : Yes
Forced : No
Color primaries : BT.709
Transfer characteristics : BT.709
Matrix coefficients : BT.709

Audio
ID : 2
Format : AAC LC
Format/Info : Advanced Audio Codec Low Complexity
Codec ID : A_AAC-2
Duration : 6 min 20 s
Bit rate : 256 kb/s
Channel(s) : 2 channels
Channel layout : L R
Sampling rate : 48.0 kHz
Frame rate : 46.875 FPS (1024 SPF)
Compression mode : Lossy
Stream size : 11.6 MiB (1%)
Default : Yes
Forced : No



Da li postoji način da se spoje bez reencodovanja, ako ne šta preporučujete, nisam u toku sa najnovijim programima?

EDIT: mediainfo u mpc-hc nije lepo izbacio za prvi fajl, on ima 25 fps

Video: MPEG4 Video (H264) 3840x2160 25.00fps [Undetermined (Video 1)]
Audio: FLAC 96000Hz stereo [Undetermined (Audio 1)]

Video: MPEG4 Video (H264) 3840x2160 30.02fps [Undetermined (Video 1)]
Audio: AAC 48000Hz stereo [Undetermined (Audio 1)]
 
Poslednja izmena:

momsab

Milicija
Urednik
Učlanjen(a)
15.02.2003
Poruke
1,551
Poena
63
ne može bez encoding-a, pošto se pravi novi video fajl. može DaVinci za ovo, npr
ono što meni nije jasno u celoj ovoj priči je što ti mobilni snimaju 4K u AVC a ne u HEVC.
 

a c a

3.5" Floppy
Učlanjen(a)
04.11.2003
Poruke
5,888
Poena
83
Ne znam, to su stariji mobilni Samsung Galaxy Note 8 (verovatno američka verzija jer snima u 30fps) i HTC 10
 
Vrh Dno